[ オンエアリストに戻る ]
TITLE "Heavy Metal Syndicate #765"
FILE "2005-10-09.mp3" WAVE
  TRACK 01 AUDIO
    TITLE "BORN ON JUDGMENT DAY"
    PERFORMER "HELLOWEEN : Keeper of the Seven Keys -The Legacy-"
    INDEX 01 00:00:00

  TRACK 02 AUDIO
    TITLE "UNDER THE ROSE"
    PERFORMER "HIM : Dark Light"
    INDEX 01 09:28:20

  TRACK 03 AUDIO
    TITLE "SEASONS OF WITHER (Live 2002)"
    PERFORMER "AEROSMITH : Rockin' the Joint"
    INDEX 01 16:45:47

  TRACK 04 AUDIO
    TITLE "OPEN YOUR EYES"
    PERFORMER "STRYPER : Reborn"
    INDEX 01 23:31:73

  TRACK 05 AUDIO
    TITLE "MAIDEN OF STEEL"
    PERFORMER "THY MAJESTIE : Jeanne d'Arc"
    INDEX 01 28:21:44

  TRACK 06 AUDIO
    TITLE "TWISTED TRANSISTOR"
    PERFORMER "KORN : See You on the Other Side"
    INDEX 01 34:55:42

  TRACK 07 AUDIO
    TITLE "Classic rock: I'M SO GLAD"
    PERFORMER "CREAM : Fresh Cream (Digitally remastered)"
    INDEX 01 52:17:29


SEO [PR] おまとめローン 冷え性対策 坂本龍馬 動画掲示板 レンタルサーバー SEO