[ オンエアリストに戻る ]
TITLE "Heavy Metal Syndicate #764"
FILE "2005-10-02.mp3" WAVE
  TRACK 01 AUDIO
    TITLE "JUST CALL MY NAME (I'LL BE THERE)"
    PERFORMER "BLACKMORE'S NIGHT : I'll Be There (Just Call My Name) (single)"
    INDEX 01 00:00:00

  TRACK 02 AUDIO
    TITLE "24/7"
    PERFORMER "U.D.O. : Mission No. X"
    INDEX 01 09:58:32

  TRACK 03 AUDIO
    TITLE "MY LIFE FOR ONE MORE DAY"
    PERFORMER "HELLOWEEN : Keeper of the Seven Keys -The Legacy-"
    INDEX 01 14:46:01

  TRACK 04 AUDIO
    TITLE "MAXIMUM SATAN"
    PERFORMER "ANNIHILATOR : Schizo Deluxe"
    INDEX 01 21:53:73

  TRACK 05 AUDIO
    TITLE "CORPSECYCLE"
    PERFORMER "CATHEDRAL : The Garden of Unearthly Delights"
    INDEX 01 27:09:36

  TRACK 06 AUDIO
    TITLE "VAMPIRE HEART"
    PERFORMER "HIM : Dark Light"
    INDEX 01 33:49:20

  TRACK 07 AUDIO
    TITLE "ONSET"
    PERFORMER "BUCKCHERRY : 15"
    INDEX 01 39:18:67

  TRACK 08 AUDIO
    TITLE "Classic rock: THE TIMES THEY ARE A-CHANGIN'"
    PERFORMER "BOB DYLAN : The Times They Are a-Changin' (Digitally remastered)"
    INDEX 01 53:05:31


SEO [PR] おまとめローン 冷え性対策 坂本龍馬 動画掲示板 レンタルサーバー SEO