[ オンエアリストに戻る ]
TITLE "Heavy Metal Syndicate #763"
FILE "2005-09-25.mp3" WAVE
  TRACK 01 AUDIO
    TITLE "NORTH BERWICK WITCH TRIALS"
    PERFORMER "CATHEDRAL : The Garden of Unearthly Delights"
    INDEX 01 00:00:00

  TRACK 02 AUDIO
    TITLE "STILL ALIVE"
    PERFORMER "NOCTURNAL RITES : Grand Illusion"
    INDEX 01 14:16:67

  TRACK 03 AUDIO
    TITLE "LIGHT THE UNIVERSE"
    PERFORMER "HELLOWEEN : Keeper of the Seven Keys -The Legacy- (feat. Candice Night)"
    INDEX 01 18:35:67

  TRACK 04 AUDIO
    TITLE "DEADMAN'S RUIN"
    PERFORMER "BRIDES OF DESTRUCTION : Runaway Brides"
    INDEX 01 25:18:40

  TRACK 05 AUDIO
    TITLE "WE DON'T CARE ANYMORE"
    PERFORMER "STORY OF THE YEAR : In the Wake of Determination"
    INDEX 01 30:26:45

  TRACK 06 AUDIO
    TITLE "BLEED TO DEATH"
    PERFORMER "HATESPHERE : The Sickness Within"
    INDEX 01 35:42:33

  TRACK 07 AUDIO
    TITLE "Classic rock: JET CITY WOMAN"
    PERFORMER "QUEENSRYCHE : Empire"
    INDEX 01 48:49:15


SEO [PR] おまとめローン 冷え性対策 坂本龍馬 動画掲示板 レンタルサーバー SEO