[ オンエアリストに戻る ]
TITLE "Heavy Metal Syndicate #762"
FILE "2005-09-18.mp3" WAVE
  TRACK 01 AUDIO
    TITLE "GET IT UP"
    PERFORMER "HELLOWEEN : Keeper of the Seven Keys -The Legacy-"
    INDEX 01 00:00:00

  TRACK 02 AUDIO
    TITLE "BLACK BUTTERFLY"
    PERFORMER "TNT : All the Way to the Sun"
    INDEX 01 09:47:71

  TRACK 03 AUDIO
    TITLE "CRAZY BITCH"
    PERFORMER "BUCKCHERRY : 15"
    INDEX 01 13:31:52

  TRACK 04 AUDIO
    TITLE "MAD FOR CRAZY"
    PERFORMER "U.D.O. : Mission No. X"
    INDEX 01 18:20:42

  TRACK 05 AUDIO
    TITLE "TREE OF LIFE & DEATH"
    PERFORMER "CATHEDRAL : The Garden of Unearthly Delights"
    INDEX 01 23:39:69

  TRACK 06 AUDIO
    TITLE "ON THE RUN"
    PERFORMER "HELLFUELED : Born II Rock"
    INDEX 01 27:43:45

  TRACK 07 AUDIO
    TITLE "MINION"
    PERFORMER "BLEED THE SKY : Paradigm in Entropy"
    INDEX 01 32:08:49

  TRACK 08 AUDIO
    TITLE "LAST MAN STANDING"
    PERFORMER "BON JOVI : Have a Nice Day"
    INDEX 01 36:35:31

  TRACK 09 AUDIO
    TITLE "Classic rock: CALL IT ROCK & ROLL"
    PERFORMER "GREAT WHITE : Hooked (Digitally remastered)"
    INDEX 01 52:02:20


SEO [PR] おまとめローン 冷え性対策 坂本龍馬 動画掲示板 レンタルサーバー SEO