[ オンエアリストに戻る ]
TITLE "Heavy Metal Syndicate #761"
FILE "2005-09-11.mp3" WAVE
  TRACK 01 AUDIO
    TITLE "WHO SAYS YOU CAN'T GO HOME"
    PERFORMER "BON JOVI : Have a Nice Day"
    INDEX 01 00:00:00

  TRACK 02 AUDIO
    TITLE "SHELL SHOCK FEVER"
    PERFORMER "U.D.O. : Mission No. X"
    INDEX 01 11:46:32

  TRACK 03 AUDIO
    TITLE "SILENT RAIN"
    PERFORMER "HELLOWEEN : Keeper of the Seven Keys -The Legacy-"
    INDEX 01 17:35:14

  TRACK 04 AUDIO
    TITLE "SUPERHEROES"
    PERFORMER "EDGUY : Superheroes (EP)"
    INDEX 01 24:16:54

  TRACK 05 AUDIO
    TITLE "RUN TO THE HILLS (Live 2003)"
    PERFORMER "IRON MAIDEN : Death on the Road (CD)"
    INDEX 01 28:24:14

  TRACK 06 AUDIO
    TITLE "SPOKEN WORDS OF VENOM"
    PERFORMER "NAGLFAR : Pariah"
    INDEX 01 34:26:53

  TRACK 07 AUDIO
    TITLE "Classic rock: WHEN A BLIND MAN CRIES"
    PERFORMER "DEEP PURPLE : Never Before (single)"
    INDEX 01 52:29:62


SEO [PR] おまとめローン 冷え性対策 坂本龍馬 動画掲示板 レンタルサーバー SEO