[ オンエアリストに戻る ]
TITLE "Heavy Metal Syndicate #760"
FILE "2005-09-04.mp3" WAVE
  TRACK 01 AUDIO
    TITLE "HELL IS THY HOME"
    PERFORMER "GAMMA RAY : Majestic"
    INDEX 01 00:00:00

  TRACK 02 AUDIO
    TITLE "A FIX"
    PERFORMER "TNT : All the Way to the Sun"
    INDEX 01 14:06:00

  TRACK 03 AUDIO
    TITLE "NEXT 2 YOU"
    PERFORMER "BUCKCHERRY : 15"
    INDEX 01 18:43:30

  TRACK 04 AUDIO
    TITLE "CAN'T GET ENOUGH"
    PERFORMER "HELLFUELED : Born II Rock"
    INDEX 01 23:31:71

  TRACK 05 AUDIO
    TITLE "GUARDED"
    PERFORMER "DISTURBED : Ten Thousand Fists"
    INDEX 01 28:40:63

  TRACK 06 AUDIO
    TITLE "THE SUFFERING"
    PERFORMER "COHEED AND CAMBRIA : Good Apollo I'm Burning Star IV - Volume One: From Fear Through the Eyes of Madness"
    INDEX 01 34:03:28

  TRACK 07 AUDIO
    TITLE "Classic rock: DESTINY"
    PERFORMER "McAULEY SCHENKER GROUP : Save Yourself"
    INDEX 01 51:46:31


SEO [PR] おまとめローン 冷え性対策 坂本龍馬 動画掲示板 レンタルサーバー SEO