[ オンエアリストに戻る ]
TITLE "Heavy Metal Syndicate #759"
FILE "2005-08-28.mp3" WAVE
  TRACK 01 AUDIO
    TITLE "SO FAR"
    PERFORMER "BUCKCHERRY : 15"
    INDEX 01 00:00:00

  TRACK 02 AUDIO
    TITLE "TEN SPEED (OF GOD'S BLOOD & BURIAL)"
    PERFORMER "COHEED AND CAMBRIA : Good Apollo I'm Burning Star IV - Volume One: From Fear Through the Eyes of Madness"
    INDEX 01 09:21:57

  TRACK 03 AUDIO
    TITLE "OUT IN THE FIELDS"
    PERFORMER "MICHAEL SCHENKER GROUP : Heavy Hitters (feat. Gary Barden)"
    INDEX 01 15:48:40

  TRACK 04 AUDIO
    TITLE "Introduction: I LOVE YOU MORE THAN YOU'LL EVER KNOW"
    PERFORMER "BLOOD, SWEAT & TEARS : Child Is Father to the Man"
    INDEX 01 21:37:28

  TRACK 05 AUDIO
    TITLE "I LOVE YOU MORE THAN YOU'LL EVER KNOW"
    PERFORMER "JOE PERRY & MICK HUCKNALL : Les Paul & Friends - American Made World Played (Compilation)"
    INDEX 01 25:12:14

  TRACK 06 AUDIO
    TITLE "CROSS THE LINE"
    PERFORMER "PLACE VENDOME : Place Vendome"
    INDEX 01 32:20:54

  TRACK 07 AUDIO
    TITLE "SECONDARY EFFECTS"
    PERFORMER "DARKANE : Layers of Lies"
    INDEX 01 37:03:56

  TRACK 08 AUDIO
    TITLE "Classic rock: DREAMS"
    PERFORMER "VAN HALEN : 5150 (Digitally remastered)"
    INDEX 01 51:22:64


SEO [PR] おまとめローン 冷え性対策 坂本龍馬 動画掲示板 レンタルサーバー SEO