[ オンエアリストに戻る ]
TITLE "Heavy Metal Syndicate #758"
FILE "2005-08-21.mp3" WAVE
  TRACK 01 AUDIO
    TITLE "JUDAS AT THE OPERA"
    PERFORMER "EDGUY : Superheroes (EP) (feat. Michael Kiske)"
    INDEX 01 00:00:00

  TRACK 02 AUDIO
    TITLE "OOPS! I DID IT AGAIN"
    PERFORMER "CHILDREN OF BODOM : Are You Dead Yet? (feat. Jonna Kosonen)"
    INDEX 01 14:32:39

  TRACK 03 AUDIO
    TITLE "LET ME ROLL IT"
    PERFORMER "RICHIE SAMBORA : Les Paul & Friends - American Made World Played (Compilation)"
    INDEX 01 21:22:11

  TRACK 04 AUDIO
    TITLE "HELLFIRE"
    PERFORMER "GAMMA RAY : Majestic"
    INDEX 01 26:52:11

  TRACK 05 AUDIO
    TITLE "ROCK BOTTOM"
    PERFORMER "TERRA NOVA : Escape"
    INDEX 01 32:02:15

  TRACK 06 AUDIO
    TITLE "ABOVE THE PYRAMID AND THE EYE"
    PERFORMER "REFLUX : The Illusion of Democracy"
    INDEX 01 37:27:55

  TRACK 07 AUDIO
    TITLE "Classic rock: SHADES OF TIME"
    PERFORMER "SANTANA : Santana"
    INDEX 01 52:40:73


SEO [PR] おまとめローン 冷え性対策 坂本龍馬 動画掲示板 レンタルサーバー SEO