[ オンエアリストに戻る ]
TITLE "Heavy Metal Syndicate #757"
FILE "2005-08-14.mp3" WAVE
  TRACK 01 AUDIO
    TITLE "THE TROOPER (Live 2003)"
    PERFORMER "IRON MAIDEN : Death on the Road (CD)"
    INDEX 01 00:00:00

  TRACK 02 AUDIO
    TITLE "PLACE VENDOME"
    PERFORMER "PLACE VENDOME : Place Vendome"
    INDEX 01 12:22:68

  TRACK 03 AUDIO
    TITLE "MY TEMPLE"
    PERFORMER "GAMMA RAY : Majestic"
    INDEX 01 17:49:40

  TRACK 04 AUDIO
    TITLE "INAPPROPE"
    PERFORMER "FROM AUTUMN TO ASHES : Abandon Your Friends"
    INDEX 01 24:53:50

  TRACK 05 AUDIO
    TITLE "STRICKEN"
    PERFORMER "DISTURBED : Ten Thousand Fists"
    INDEX 01 28:30:62

  TRACK 06 AUDIO
    TITLE "BRING IT ON HOME"
    PERFORMER "HELLACOPTERS : Rock & Roll Is Dead."
    INDEX 01 34:12:60

  TRACK 07 AUDIO
    TITLE "THE PLACE IN YOUR HEART"
    PERFORMER "JOURNEY : Generations"
    INDEX 01 51:27:35


SEO [PR] おまとめローン 冷え性対策 坂本龍馬 動画掲示板 レンタルサーバー SEO