[ オンエアリストに戻る ]
TITLE "Heavy Metal Syndicate #756"
FILE "2005-08-07.mp3" WAVE
  TRACK 01 AUDIO
    TITLE "FIGHT"
    PERFORMER "GAMMA RAY : Majestic"
    INDEX 01 00:00:00

  TRACK 02 AUDIO
    TITLE "SPOOKS IN THE ATTIC"
    PERFORMER "EDGUY : Superheroes (EP)"
    INDEX 01 09:54:26

  TRACK 03 AUDIO
    TITLE "PART OF THE GAME"
    PERFORMER "TERRA NOVA : Escape"
    INDEX 01 14:36:74

  TRACK 04 AUDIO
    TITLE "WELCOME HOME"
    PERFORMER "COHEED AND CAMBRIA : Good Apollo I'm Burning Star IV - Volume One: From Fear Through the Eyes of Madness"
    INDEX 01 21:10:71

  TRACK 05 AUDIO
    TITLE "TRASHED, LOST & STRUNGOUT"
    PERFORMER "CHILDREN OF BODOM : Are You Dead Yet?"
    INDEX 01 26:48:30

  TRACK 06 AUDIO
    TITLE "REBIRTHING"
    PERFORMER "HOLY MOSES : Strength Power Will Passion"
    INDEX 01 33:39:08

  TRACK 07 AUDIO
    TITLE "FAT BOTTOMED GIRLS (Live 2005)"
    PERFORMER "QUEEN + PAUL RODGERS : Return of the Champions"
    INDEX 01 49:26:55


SEO [PR] おまとめローン 冷え性対策 坂本龍馬 動画掲示板 レンタルサーバー SEO