[ オンエアリストに戻る ]
TITLE "Heavy Metal Syndicate #755"
FILE "2005-07-31.mp3" WAVE
  TRACK 01 AUDIO
    TITLE "JOY TO THE WORLD (Live 2004)"
    PERFORMER "THUNDER : Live at Rock City - Case # 2"
    INDEX 01 00:00:00

  TRACK 02 AUDIO
    TITLE "TALK DIRTY TO ME"
    PERFORMER "CHILDREN OF BODOM : Are You Dead Yet?"
    INDEX 01 11:44:36

  TRACK 03 AUDIO
    TITLE "JUST CARRY ON"
    PERFORMER "STRATOVARIUS : Stratovarius"
    INDEX 01 17:16:40

  TRACK 04 AUDIO
    TITLE "THE ASSAILANT"
    PERFORMER "FALCONER : Grime vs. Grandeur"
    INDEX 01 24:03:56

  TRACK 05 AUDIO
    TITLE "FENDER 59'"
    PERFORMER "GYPSY ROSE : Gypsy Rose"
    INDEX 01 28:51:01

  TRACK 06 AUDIO
    TITLE "KILLING MACHINE"
    PERFORMER "DESTRUCTION : Inventor of Evil"
    INDEX 01 34:17:70

  TRACK 07 AUDIO
    TITLE "Classic rock: JOY TO THE WORLD"
    PERFORMER "THREE DOG NIGHT : Naturally"
    INDEX 01 51:41:12


SEO [PR] おまとめローン 冷え性対策 坂本龍馬 動画掲示板 レンタルサーバー SEO