[ オンエアリストに戻る ]
TITLE "Heavy Metal Syndicate #754"
FILE "2005-07-24.mp3" WAVE
  TRACK 01 AUDIO
    TITLE "BASTARDS OF BODOM"
    PERFORMER "CHILDREN OF BODOM : Are You Dead Yet?"
    INDEX 01 00:00:00

  TRACK 02 AUDIO
    TITLE "SOMEBODY'S WATCHING ME"
    PERFORMER "WARMEN : Accept the Fact (feat. Alexi Laiho)"
    INDEX 01 10:58:43

  TRACK 03 AUDIO
    TITLE "BEFORE THE FALL"
    PERFORMER "HELLACOPTERS : Rock & Roll Is Dead."
    INDEX 01 15:32:73

  TRACK 04 AUDIO
    TITLE "IN SELF-DEFENSE"
    PERFORMER "JOURNEY : Generations"
    INDEX 01 20:08:65

  TRACK 05 AUDIO
    TITLE "YOU ARE THE ONE"
    PERFORMER "GYPSY ROSE : Gypsy Rose"
    INDEX 01 24:48:65

  TRACK 06 AUDIO
    TITLE "FIVE STAR PRISON"
    PERFORMER "TERROR 2000 : Terror for Sale"
    INDEX 01 30:43:63

  TRACK 07 AUDIO
    TITLE "STREAM OF TIME"
    PERFORMER "DOUBLE DEALER : Fate & Destiny"
    INDEX 01 34:55:13

  TRACK 08 AUDIO
    TITLE "Classic rock: KARN EVIL 9 (First Impression Part 2) (Live 1997)"
    PERFORMER "EMERSON, LAKE & PALMER : Then and Now"
    INDEX 01 50:12:45


SEO [PR] おまとめローン 冷え性対策 坂本龍馬 動画掲示板 レンタルサーバー SEO