[ オンエアリストに戻る ]
TITLE "Heavy Metal Syndicate #753"
FILE "2005-07-17.mp3" WAVE
  TRACK 01 AUDIO
    TITLE "Message from Jon Bon Jovi"
    PERFORMER "BON JOVI"
    INDEX 01 00:00:00

  TRACK 02 AUDIO
    TITLE "HAVE A NICE DAY (edit)"
    PERFORMER "BON JOVI : Have a Nice Day"
    INDEX 01 00:06:24

  TRACK 03 AUDIO
    TITLE "ARE YOU DEAD YET?"
    PERFORMER "CHILDREN OF BODOM : Are You Dead Yet?"
    INDEX 01 11:30:37

  TRACK 04 AUDIO
    TITLE "MACHTKAMPF"
    PERFORMER "ARCH ENEMY : Doomsday Machine"
    INDEX 01 16:49:42

  TRACK 05 AUDIO
    TITLE "PURGATORY TIME"
    PERFORMER "FALCONER : Grime vs. Grandeur"
    INDEX 01 23:08:59

  TRACK 06 AUDIO
    TITLE "FIGHT!!!"
    PERFORMER "STRATOVARIUS : Stratovarius"
    INDEX 01 28:57:52

  TRACK 07 AUDIO
    TITLE "THE CRUEL END"
    PERFORMER "DOUBLE DEALER : Fate & Destiny"
    INDEX 01 36:09:05

  TRACK 08 AUDIO
    TITLE "Classic rock: METAL HEART (Live 1985)"
    PERFORMER "ACCEPT : Kaizoku-Ban (Digitally remastered)"
    INDEX 01 50:34:30


SEO [PR] おまとめローン 冷え性対策 坂本龍馬 動画掲示板 レンタルサーバー SEO