[ オンエアリストに戻る ]
TITLE "Heavy Metal Syndicate #752"
FILE "2005-07-10.mp3" WAVE
  TRACK 01 AUDIO
    TITLE "LIVING DEAD BEAT"
    PERFORMER "CHILDREN OF BODOM : Are You Dead Yet?"
    INDEX 01 00:00:00

  TRACK 02 AUDIO
    TITLE "COME ON, COME IN"
    PERFORMER "VELVET REVOLVER : Fantastic 4 - The Album (Soundtrack)"
    INDEX 01 12:37:16

  TRACK 03 AUDIO
    TITLE "LONG LIVE ROCK 'N' ROLL"
    PERFORMER "TERRA NOVA : Escape"
    INDEX 01 17:54:50

  TRACK 04 AUDIO
    TITLE "IT AIN'T OVER"
    PERFORMER "EMERALD RAIN : Sleepwalk"
    INDEX 01 24:09:55

  TRACK 05 AUDIO
    TITLE "MANIAC DANCE"
    PERFORMER "STRATOVARIUS : Stratovarius"
    INDEX 01 28:45:59

  TRACK 06 AUDIO
    TITLE "I AM LEGEND / OUT FOR BLOOD"
    PERFORMER "ARCH ENEMY : Doomsday Machine"
    INDEX 01 36:14:10

  TRACK 07 AUDIO
    TITLE "Classic rock: I WOKE UP THIS MORNING"
    PERFORMER "TEN YEARS AFTER : Ssssh"
    INDEX 01 50:51:18


SEO [PR] おまとめローン 冷え性対策 坂本龍馬 動画掲示板 レンタルサーバー SEO