[ オンエアリストに戻る ]
TITLE "Heavy Metal Syndicate #751"
FILE "2005-07-03.mp3" WAVE
  TRACK 01 AUDIO
    TITLE "Reissue: EASTERN SUN (Earlier Version)"
    PERFORMER "ZENO : Zenology (2005 reissue)"
    INDEX 01 00:00:00

  TRACK 02 AUDIO
    TITLE "ROCK AND ROLL / HEARTBREAKER"
    PERFORMER "SOUL DOCTOR : For a Fistful of Dollars"
    INDEX 01 07:56:37

  TRACK 03 AUDIO
    TITLE "NEMESIS"
    PERFORMER "ARCH ENEMY : Doomsday Machine"
    INDEX 01 15:01:48

  TRACK 04 AUDIO
    TITLE "THE HAUNTED HILL"
    PERFORMER "NIGHTSCAPE : Symphony of the Night"
    INDEX 01 20:58:38

  TRACK 05 AUDIO
    TITLE "WHAT YOU'RE LIVING FOR"
    PERFORMER "IOMMI (Tony Iommi / Glenn Hughes) : Fused"
    INDEX 01 27:30:50

  TRACK 06 AUDIO
    TITLE "I WON'T LIE DOWN"
    PERFORMER "BLACK VELVETS : The Black Velvets"
    INDEX 01 33:54:07

  TRACK 07 AUDIO
    TITLE "GUARDED"
    PERFORMER "DISTURBED : Guarded (single)"
    INDEX 01 37:37:40

  TRACK 08 AUDIO
    TITLE "Classic rock: MOVE OVER (Alternate version)"
    PERFORMER "JANIS JOPLIN : Pearl (Legacy edition)"
    INDEX 01 50:28:18


SEO [PR] おまとめローン 冷え性対策 坂本龍馬 動画掲示板 レンタルサーバー SEO