[ オンエアリストに戻る ]
TITLE "Heavy Metal Syndicate #750"
FILE "2005-06-26.mp3" WAVE
  TRACK 01 AUDIO
    TITLE "ENTER THE MACHINE / TAKING BACK MY SOUL"
    PERFORMER "ARCH ENEMY : Doomsday Machine (feat. Gus G.)"
    INDEX 01 00:00:00

  TRACK 02 AUDIO
    TITLE "MY LIFE FOR ONE MORE DAY (single edit version)"
    PERFORMER "HELLOWEEN : Mrs. God (single)"
    INDEX 01 14:22:67

  TRACK 03 AUDIO
    TITLE "RUN (THE NAME OF YOUR ENEMY)"
    PERFORMER "HELLOWEEN : Mrs. God (single)"
    INDEX 01 19:49:52

  TRACK 04 AUDIO
    TITLE "SECRETS OF THE NIGHT"
    PERFORMER "PRAYER : Wrong Address"
    INDEX 01 25:57:05

  TRACK 05 AUDIO
    TITLE "START IT UP"
    PERFORMER "FORTY DEUCE : Nothing to Lose"
    INDEX 01 30:09:21

  TRACK 06 AUDIO
    TITLE "ANGEL CRY"
    PERFORMER "HOLY MOSES : Strength Power Will Passion"
    INDEX 01 35:17:59

  TRACK 07 AUDIO
    TITLE "Classic rock: AIN'T TALKIN' 'BOUT LOVE"
    PERFORMER "VAN HALEN : Van Halen (Digitally remastered)"
    INDEX 01 51:42:50


SEO [PR] おまとめローン 冷え性対策 坂本龍馬 動画掲示板 レンタルサーバー SEO