[ オンエアリストに戻る ]
TITLE "Heavy Metal Syndicate #749"
FILE "2005-06-19.mp3" WAVE
  TRACK 01 AUDIO
    TITLE "MRS. GOD"
    PERFORMER "HELLOWEEN : Mrs. God (single)"
    INDEX 01 00:00:00

  TRACK 02 AUDIO
    TITLE "EATIN' ON ME"
    PERFORMER "SOUL DOCTOR : For a Fistful of Dollars"
    INDEX 01 08:09:53

  TRACK 03 AUDIO
    TITLE "OH MY GOD"
    PERFORMER "FORTY DEUCE : Nothing to Lose"
    INDEX 01 13:54:73

  TRACK 04 AUDIO
    TITLE "ABSOLUTION"
    PERFORMER "TRIBUZY : Execution (feat. Michael Kiske)"
    INDEX 01 20:16:47

  TRACK 05 AUDIO
    TITLE "DYING EYES"
    PERFORMER "FEAR MY THOUGHTS : Hell Sweet Hell"
    INDEX 01 31:41:40

  TRACK 06 AUDIO
    TITLE "Reissue: WORLD OF TOMORROW"
    PERFORMER "ZENO : Listen to the Light (2005 reissue)"
    INDEX 01 37:57:69

  TRACK 07 AUDIO
    TITLE "Classic rock: THE FARANDOLE (Live 1983)"
    PERFORMER "TALAS : Live Speed on Ice"
    INDEX 01 52:56:13


SEO [PR] おまとめローン 冷え性対策 坂本龍馬 動画掲示板 レンタルサーバー SEO