[ オンエアリストに戻る ]
TITLE "Heavy Metal Syndicate #748"
FILE "2005-06-12.mp3" WAVE
  TRACK 01 AUDIO
    TITLE "BACKSTREET SYMPHONY (Live 1990)"
    PERFORMER "THUNDER : Flawed To Perfection - The Videos 1990-1995 (Live at Donnington, August 18, 1990)"
    INDEX 01 00:00:00

  TRACK 02 AUDIO
    TITLE "DYING ON THE VINE"
    PERFORMER "F5 : A Drug For All Seasons"
    INDEX 01 11:50:70

  TRACK 03 AUDIO
    TITLE "TRUTH DENIED"
    PERFORMER "BIOMECHANICAL : The Empires of the Worlds"
    INDEX 01 15:53:33

  TRACK 04 AUDIO
    TITLE "CADENZA OP.2 IN A-MINOR"
    PERFORMER "RICHARD ANDERSSON : The Ultimate Andersson Collection"
    INDEX 01 23:57:66

  TRACK 05 AUDIO
    TITLE "SK 983"
    PERFORMER "ROYAL HUNT : Paper Blood"
    INDEX 01 26:11:55

  TRACK 06 AUDIO
    TITLE "ON WINDS OF DEATH WE RIDE"
    PERFORMER "KIUAS : The Spirit of Ukko"
    INDEX 01 32:50:52

  TRACK 07 AUDIO
    TITLE "MISFIT"
    PERFORMER "GZR : Ohmwork"
    INDEX 01 39:14:04

  TRACK 08 AUDIO
    TITLE "Classic rock: NEED YOUR LOVE SO BAD"
    PERFORMER "WHITESNAKE : Slide It In (American remix version)"
    INDEX 01 51:32:58


SEO [PR] おまとめローン 冷え性対策 坂本龍馬 動画掲示板 レンタルサーバー SEO