[ オンエアリストに戻る ]
TITLE "Heavy Metal Syndicate #747"
FILE "2005-06-05.mp3" WAVE
  TRACK 01 AUDIO
    TITLE "Reissue: TOGETHER (Tommy Heart Version)"
    PERFORMER "ZENO : Listen to the Light (2005 reissue)"
    INDEX 01 00:00:00

  TRACK 02 AUDIO
    TITLE "NEVER ENOUGH"
    PERFORMER "DREAM THEATER : Octavarium"
    INDEX 01 10:43:43

  TRACK 03 AUDIO
    TITLE "KILL DEVIL HILL"
    PERFORMER "BRUCE DICKINSON : Tyranny of Souls"
    INDEX 01 17:50:52

  TRACK 04 AUDIO
    TITLE "NOT MY KIND"
    PERFORMER "ROYAL HUNT : Paper Blood"
    INDEX 01 22:27:55

  TRACK 05 AUDIO
    TITLE "HUNTING HIGH AND LOW"
    PERFORMER "FREEDOM CALL : The Circle of Life"
    INDEX 01 30:16:51

  TRACK 06 AUDIO
    TITLE "ASSAULTER"
    PERFORMER "BIOMECHANICAL : The Empires of the Worlds"
    INDEX 01 34:57:13

  TRACK 07 AUDIO
    TITLE "Classic rock: WE ROCK (Live 1986)"
    PERFORMER "DIO : Intermission"
    INDEX 01 50:42:45


SEO [PR] おまとめローン 冷え性対策 坂本龍馬 動画掲示板 レンタルサーバー SEO