[ オンエアリストに戻る ]
TITLE "Heavy Metal Syndicate #746"
FILE "2005-05-29.mp3" WAVE
  TRACK 01 AUDIO
    TITLE "I WALK BESIDE YOU"
    PERFORMER "DREAM THEATER : Octavarium"
    INDEX 01 00:00:00

  TRACK 02 AUDIO
    TITLE "DISSIDENCE"
    PERFORMER "F5 : A Drug For All Seasons"
    INDEX 01 17:33:65

  TRACK 03 AUDIO
    TITLE "ANGRY AGAIN"
    PERFORMER "MEGADETH : Greatest Hits - Back to the Start"
    INDEX 01 22:33:53

  TRACK 04 AUDIO
    TITLE "LIFT U UP"
    PERFORMER "GOTTHARD : Lipservice"
    INDEX 01 28:08:25

  TRACK 05 AUDIO
    TITLE "LONE RUNNER"
    PERFORMER "BLODEN-WEDD : Eye of Horus"
    INDEX 01 40:49:18

  TRACK 06 AUDIO
    TITLE "Classic rock: THE CAPITAL OF POWER"
    PERFORMER "TRIUMVIRAT : Spartacus"
    INDEX 01 53:10:14


SEO [PR] おまとめローン 冷え性対策 坂本龍馬 動画掲示板 レンタルサーバー SEO