[ オンエアリストに戻る ]
TITLE "Heavy Metal Syndicate #745"
FILE "2005-05-22.mp3" WAVE
  TRACK 01 AUDIO
    TITLE "POWER OF THE SUN"
    PERFORMER "BRUCE DICKINSON : Tyranny of Souls"
    INDEX 01 00:00:00

  TRACK 02 AUDIO
    TITLE "PAPER BLOOD"
    PERFORMER "ROYAL HUNT : Paper Blood"
    INDEX 01 08:07:23

  TRACK 03 AUDIO
    TITLE "NEW POSITION"
    PERFORMER "SOUL SIRKUS : World Play"
    INDEX 01 15:52:29

  TRACK 04 AUDIO
    TITLE "Reissue: HOW CAN I KNOW"
    PERFORMER "ZENO : Listen to the Light (2005 reissue)"
    INDEX 01 22:31:39

  TRACK 05 AUDIO
    TITLE "SOUND THE SURRENDER"
    PERFORMER "DARKEST HOUR : Undoing Ruin"
    INDEX 01 28:02:43

  TRACK 06 AUDIO
    TITLE "TURN TO ASH"
    PERFORMER "DEW-SCENTED : Issue VI"
    INDEX 01 32:51:65

  TRACK 07 AUDIO
    TITLE "Classic rock: WISH YOU WERE HERE (Live 1988)"
    PERFORMER "PINK FLOYD : Delicate Sound of Thunder"
    INDEX 01 51:45:36


SEO [PR] おまとめローン 冷え性対策 坂本龍馬 動画掲示板 レンタルサーバー SEO