[ オンエアリストに戻る ]
TITLE "Heavy Metal Syndicate #744"
FILE "2005-05-15.mp3" WAVE
  TRACK 01 AUDIO
    TITLE "SOUL INTRUDERS"
    PERFORMER "BRUCE DICKINSON : Tyranny of Souls"
    INDEX 01 00:00:00

  TRACK 02 AUDIO
    TITLE "ACROSS THE SNOWS"
    PERFORMER "KIUAS : The Spirit of Ukko"
    INDEX 01 10:40:37

  TRACK 03 AUDIO
    TITLE "DREAM ON"
    PERFORMER "GOTTHARD : Lipservice"
    INDEX 01 17:08:16

  TRACK 04 AUDIO
    TITLE "STARCHILD"
    PERFORMER "FREEDOM CALL : The Circle of Life"
    INDEX 01 22:13:42

  TRACK 05 AUDIO
    TITLE "BREAK YOUR CHAINS"
    PERFORMER "ROYAL HUNT : Paper Blood"
    INDEX 01 27:29:29

  TRACK 06 AUDIO
    TITLE "STREETCAR"
    PERFORMER "FUNERAL FOR A FRIEND : Hours"
    INDEX 01 35:41:04

  TRACK 07 AUDIO
    TITLE "Classic rock: RESCUE ME (Live 1982)"
    PERFORMER "Y&T : Open Fire"
    INDEX 01 50:23:68


SEO [PR] おまとめローン 冷え性対策 坂本龍馬 動画掲示板 レンタルサーバー SEO