[ オンエアリストに戻る ]
TITLE "Heavy Metal Syndicate #743"
FILE "2005-05-08.mp3" WAVE
  TRACK 01 AUDIO
    TITLE "ABDUCTION"
    PERFORMER "BRUCE DICKINSON : Tyranny of Souls"
    INDEX 01 00:00:00

  TRACK 02 AUDIO
    TITLE "FORGIVE & FORGET"
    PERFORMER "HAREM SCAREM : Overload"
    INDEX 01 10:18:05

  TRACK 03 AUDIO
    TITLE "THE OTHER SIDE OF ME"
    PERFORMER "GOTTHARD : Lipservice"
    INDEX 01 15:19:65

  TRACK 04 AUDIO
    TITLE "CARRY ON"
    PERFORMER "FREEDOM CALL : The Circle of Life"
    INDEX 01 21:28:73

  TRACK 05 AUDIO
    TITLE "WINTER IN JUNE"
    PERFORMER "KIUAS : The Spirit of Ukko"
    INDEX 01 26:20:10

  TRACK 06 AUDIO
    TITLE "LONELY"
    PERFORMER "JOE PERRY : Joe Perry"
    INDEX 01 32:32:56

  TRACK 07 AUDIO
    TITLE "Reissue: DON'T COUNT ME OUT"
    PERFORMER "ZENO : Zeno (2005 reissue)"
    INDEX 01 37:50:17

  TRACK 08 AUDIO
    TITLE "Classic rock: C'EST LA VIE (Live 1977)"
    PERFORMER "EMERSON, LAKE & PALMER : Works Live"
    INDEX 01 52:20:01


SEO [PR] おまとめローン 冷え性対策 坂本龍馬 動画掲示板 レンタルサーバー SEO