[ オンエアリストに戻る ]
TITLE "Heavy Metal Syndicate #742"
FILE "2005-05-01.mp3" WAVE
  TRACK 01 AUDIO
    TITLE "ALL WE ARE"
    PERFORMER "GOTTHARD : Lipservice"
    INDEX 01 00:00:00

  TRACK 02 AUDIO
    TITLE "MISEDUCATION (VIOLENCE IN SCHOOLS I - THE TEACHER)"
    PERFORMER "FRAMESHIFT : An Absence of Empathy (feat. Sebastian Bach)"
    INDEX 01 14:15:56

  TRACK 03 AUDIO
    TITLE "WARRIOR SOUL"
    PERFORMER "KIUAS : The Spirit of Ukko"
    INDEX 01 23:18:31

  TRACK 04 AUDIO
    TITLE "THORNS OF A BLACK ROSE"
    PERFORMER "KIUAS : The Spirit of Ukko"
    INDEX 01 29:06:21

  TRACK 05 AUDIO
    TITLE "MIGHTY ReARRANGER"
    PERFORMER "ROBERT PLANT AND THE STRANGE SENSATION : Mighty ReArranger"
    INDEX 01 34:22:05

  TRACK 06 AUDIO
    TITLE "DER STURM"
    PERFORMER "EQUILIBRIUM : Turis Fratyr"
    INDEX 01 39:36:10

  TRACK 07 AUDIO
    TITLE "Classic rock: TURN! TURN! TURN!"
    PERFORMER "BYRDS : Turn! Turn! Turn!"
    INDEX 01 52:33:20


SEO [PR] おまとめローン 冷え性対策 坂本龍馬 動画掲示板 レンタルサーバー SEO