[ オンエアリストに戻る ]
TITLE "Heavy Metal Syndicate #741"
FILE "2005-04-24.mp3" WAVE
  TRACK 01 AUDIO
    TITLE "THE SPIRIT OF UKKO"
    PERFORMER "KIUAS : The Spirit of Ukko"
    INDEX 01 00:00:00

  TRACK 02 AUDIO
    TITLE "KINGSLAYER"
    PERFORMER "GRAND MAGUS : Wolf's Return"
    INDEX 01 14:08:59

  TRACK 03 AUDIO
    TITLE "POEMS"
    PERFORMER "NIGHTRAGE : Descent into Chaos"
    INDEX 01 19:18:60

  TRACK 04 AUDIO
    TITLE "TIE YOUR MOTHER DOWN (Live at Brixton Academy, London, March 28, 2005)"
    PERFORMER "QUEEN + PAUL RODGERS : (for Promotional Use Only)"
    INDEX 01 26:03:74

  TRACK 05 AUDIO
    TITLE "CRAZY LITTLE THING CALLED LOVE (Live at Brixton Academy, London, March 28, 2005)"
    PERFORMER "QUEEN + PAUL RODGERS : (for Promotional Use Only)"
    INDEX 01 30:40:36

  TRACK 06 AUDIO
    TITLE "FREEDOM FRIES"
    PERFORMER "ROBERT PLANT AND THE STRANGE SENSATION : Mighty ReArranger"
    INDEX 01 37:30:11

  TRACK 07 AUDIO
    TITLE "Classic rock: HEAVEN"
    PERFORMER "WARRANT : Dirty Rotten Filthy Stinking Rich"
    INDEX 01 52:15:22


SEO [PR] おまとめローン 冷え性対策 坂本龍馬 動画掲示板 レンタルサーバー SEO