[ オンエアリストに戻る ]
TITLE "Heavy Metal Syndicate #740"
FILE "2005-04-17.mp3" WAVE
  TRACK 01 AUDIO
    TITLE "FREE AGAIN (EAGLE OF LOVE)"
    PERFORMER "ZENO : Zenology II"
    INDEX 01 00:00:00

  TRACK 02 AUDIO
    TITLE "THE DEMOLITION ARMY"
    PERFORMER "EVIL MASQUERADE : Theatrical Madness"
    INDEX 01 09:41:59

  TRACK 03 AUDIO
    TITLE "WAR NO MORE"
    PERFORMER "VIOLENT STORM : Violent Storm (feat. K.K. Downing)"
    INDEX 01 18:46:05

  TRACK 04 AUDIO
    TITLE "FIRE IN THE UNKNOWN"
    PERFORMER "VIOLENT STORM : Violent Storm (feat. Yngwie J. Malmsteen)"
    INDEX 01 22:13:41

  TRACK 05 AUDIO
    TITLE "GIVE IT ALL YOU GOT"
    PERFORMER "SUPERGROUPIES : Supergroupies"
    INDEX 01 30:44:31

  TRACK 06 AUDIO
    TITLE "UNTER DER EICHE"
    PERFORMER "EQUILIBRIUM : Turis Fratyr"
    INDEX 01 35:50:62

  TRACK 07 AUDIO
    TITLE "Classic rock: GOOD TIMES BAD TIMES"
    PERFORMER "LED ZEPPELIN : Led Zeppelin (Digitally remastered)"
    INDEX 01 51:54:29


SEO [PR] おまとめローン 冷え性対策 坂本龍馬 動画掲示板 レンタルサーバー SEO