[ オンエアリストに戻る ]
TITLE "Heavy Metal Syndicate #739"
FILE "2005-04-10.mp3" WAVE
  TRACK 01 AUDIO
    TITLE "CRYSTAL SHIP"
    PERFORMER "JOE PERRY : Joe Perry"
    INDEX 01 00:00:00

  TRACK 02 AUDIO
    TITLE "HARD BEAT"
    PERFORMER "ZENO : Zenology II"
    INDEX 01 11:43:67

  TRACK 03 AUDIO
    TITLE "ON MY WAY"
    PERFORMER "ZENO : Zenology II"
    INDEX 01 15:30:61

  TRACK 04 AUDIO
    TITLE "PRETENDER"
    PERFORMER "JAMES LaBRIE : Elements of Persuasion"
    INDEX 01 21:00:56

  TRACK 05 AUDIO
    TITLE "WHERE DO WE GO?"
    PERFORMER "WINGDOM : Reality"
    INDEX 01 26:37:70

  TRACK 06 AUDIO
    TITLE "DIPLOMATIC IMMUNITY"
    PERFORMER "NAPALM DEATH : The Code Is Red...Long Live the Code"
    INDEX 01 32:32:51

  TRACK 07 AUDIO
    TITLE "Classic rock: THE KING"
    PERFORMER "ACCEPT : I'm a Rebel (Digitally remastered)"
    INDEX 01 51:05:74


SEO [PR] おまとめローン 冷え性対策 坂本龍馬 動画掲示板 レンタルサーバー SEO