[ オンエアリストに戻る ]
TITLE "Heavy Metal Syndicate #738"
FILE "2005-04-03.mp3" WAVE
  TRACK 01 AUDIO
    TITLE "VICTORIA"
    PERFORMER "ZENO : Zenology II"
    INDEX 01 00:00:00

  TRACK 02 AUDIO
    TITLE "SHAKIN' MY CAGE"
    PERFORMER "JOE PERRY : Joe Perry"
    INDEX 01 10:03:33

  TRACK 03 AUDIO
    TITLE "WHISKEY TRAIN"
    PERFORMER "JAKE E. LEE : Retraced"
    INDEX 01 17:05:39

  TRACK 04 AUDIO
    TITLE "LIVING IN FEAR"
    PERFORMER "DREAMAKER : Enclosed"
    INDEX 01 23:28:69

  TRACK 05 AUDIO
    TITLE "RISE FROM THE FALL"
    PERFORMER "AT VANCE : Chained"
    INDEX 01 27:32:38

  TRACK 06 AUDIO
    TITLE "WINGTHORS HAMMER"
    PERFORMER "EQUILIBRIUM : Turis Fratyr"
    INDEX 01 34:58:74

  TRACK 07 AUDIO
    TITLE "RIGHT YOU ARE"
    PERFORMER "NAPALM DEATH : The Code Is Red...Long Live the Code"
    INDEX 01 40:02:21

  TRACK 08 AUDIO
    TITLE "Classic rock: FIRE"
    PERFORMER "CRAZY WORLD OF ARTHUR BROWN : The Crazy World of Arthur Brown"
    INDEX 01 53:14:23


SEO [PR] おまとめローン 冷え性対策 坂本龍馬 動画掲示板 レンタルサーバー SEO