[ オンエアリストに戻る ]
TITLE "Heavy Metal Syndicate #737"
FILE "2005-03-27.mp3" WAVE
  TRACK 01 AUDIO
    TITLE "TONIGHT"
    PERFORMER "ZENO : Zenology II"
    INDEX 01 00:00:00

  TRACK 02 AUDIO
    TITLE "BORN TO BE WILD"
    PERFORMER "OZZY OSBOURNE : Prince of Darkness (Disc 3) (and Miss Piggy)"
    INDEX 01 14:25:43

  TRACK 03 AUDIO
    TITLE "Reissue: BROKEN IN TWO (Demo)"
    PERFORMER "THUNDER : Backstreet Symphony (2005 reissue)"
    INDEX 01 20:59:72

  TRACK 04 AUDIO
    TITLE "TIME"
    PERFORMER "WINGDOM : Reality"
    INDEX 01 28:27:34

  TRACK 05 AUDIO
    TITLE "THEATRICAL MADNESS"
    PERFORMER "EVIL MASQUERADE : Theatrical Madness"
    INDEX 01 33:03:60

  TRACK 06 AUDIO
    TITLE "THE RULES WE ROCK 'N' ROLL BY"
    PERFORMER "ANTIPRODUCT : Made in USA"
    INDEX 01 41:31:71

  TRACK 07 AUDIO
    TITLE "Classic rock: ROADS TO FREEDOM"
    PERFORMER "ILLUSION : Out of the Mist (Digitally remastered)"
    INDEX 01 52:22:47


SEO [PR] おまとめローン 冷え性対策 坂本龍馬 動画掲示板 レンタルサーバー SEO