[ オンエアリストに戻る ]
TITLE "Heavy Metal Syndicate #736"
FILE "2005-03-20.mp3" WAVE
  TRACK 01 AUDIO
    TITLE "SYMPATHY FOR THE DEVIL"
    PERFORMER "OZZY OSBOURNE : Prince of Darkness (Disc 4)"
    INDEX 01 00:00:00

  TRACK 02 AUDIO
    TITLE "THE DARK PLAY / OUTRO"
    PERFORMER "EVIL MASQUERADE : Theatrical Madness"
    INDEX 01 14:14:38
    INDEX 02 19:25:36

  TRACK 03 AUDIO
    TITLE "MR. SPOCK"
    PERFORMER "PAUL GILBERT : Space Ship One"
    INDEX 01 21:31:39

  TRACK 04 AUDIO
    TITLE "M3"
    PERFORMER "LABYRINTH : Freeman"
    INDEX 01 27:02:04

  TRACK 05 AUDIO
    TITLE "SLEEPING WITH ONE EYE OPEN"
    PERFORMER "SPIRITUAL BEGGARS : Demons"
    INDEX 01 32:25:58

  TRACK 06 AUDIO
    TITLE "SEEDS OF REBELLION"
    PERFORMER "SCAR SYMMETRY : Symmetric in Design"
    INDEX 01 37:58:40

  TRACK 07 AUDIO
    TITLE "Classic rock: PIECE OF MY HEART"
    PERFORMER "BIG BROTHER & THE HOLDING COMPANY : Cheap Thrills"
    INDEX 01 51:36:40


SEO [PR] おまとめローン 冷え性対策 坂本龍馬 動画掲示板 レンタルサーバー SEO