[ オンエアリストに戻る ]
TITLE "Heavy Metal Syndicate #735"
FILE "2005-03-13.mp3" WAVE
  TRACK 01 AUDIO
    TITLE "YES SIR, I CAN BOOGIE"
    PERFORMER "EVIL MASQUERADE : Theatrical Madness"
    INDEX 01 00:00:00

  TRACK 02 AUDIO
    TITLE "LOVE"
    PERFORMER "HANOI ROCKS : Another Hostile Takeover"
    INDEX 01 12:18:32

  TRACK 03 AUDIO
    TITLE "SALT IN YOUR WOUNDS"
    PERFORMER "SPIRITUAL BEGGARS : Demons"
    INDEX 01 15:44:46

  TRACK 04 AUDIO
    TITLE "WHILE MY GUITAR GENTLY WEEPS"
    PERFORMER "SCHENKER-PATTISON SUMMIT : The Endless Jam Continues"
    INDEX 01 23:45:04

  TRACK 05 AUDIO
    TITLE "IN MY LIFE"
    PERFORMER "OZZY OSBOURNE : Prince of Darkness (Disc 4)"
    INDEX 01 28:16:07

  TRACK 06 AUDIO
    TITLE "Reissue: SATURDAY NIGHT'S ALRIGHT (FOR FIGHTING) (Recorded live in studio)"
    PERFORMER "THUNDER : Backstreet Symphony (2005 reissue)"
    INDEX 01 37:13:36

  TRACK 07 AUDIO
    TITLE "Classic rock: GOOD TIMES"
    PERFORMER "ERIC BURDON & THE ANIMALS : Winds of Change"
    INDEX 01 53:16:67


SEO [PR] おまとめローン 冷え性対策 坂本龍馬 動画掲示板 レンタルサーバー SEO