[ オンエアリストに戻る ]
TITLE "Heavy Metal Syndicate #734"
FILE "2005-03-06.mp3" WAVE
  TRACK 01 AUDIO
    TITLE "21ST CENTURY SCHIZOID MAN"
    PERFORMER "OZZY OSBOURNE : Prince of Darkness (Disc 4)"
    INDEX 01 00:00:00

  TRACK 02 AUDIO
    TITLE "YOU MUST BE BLIND"
    PERFORMER "BLACK LABEL SOCIETY : Mafia"
    INDEX 01 09:13:20

  TRACK 03 AUDIO
    TITLE "TOO SAD TO CRY"
    PERFORMER "HEARTLAND : Move on"
    INDEX 01 13:34:17

  TRACK 04 AUDIO
    TITLE "CRUSHED"
    PERFORMER "STARBREAKER : Starbreaker"
    INDEX 01 20:30:67

  TRACK 05 AUDIO
    TITLE "SLEEPING SUN"
    PERFORMER "NIGHTWISH : Bestwishes"
    INDEX 01 27:13:67

  TRACK 06 AUDIO
    TITLE "THE HERMIT"
    PERFORMER "KARELIA : Raise"
    INDEX 01 33:19:03

  TRACK 07 AUDIO
    TITLE "WE ALL DREAM OF LOVE"
    PERFORMER "PAUL GILBERT : Space Ship One"
    INDEX 01 39:50:06

  TRACK 08 AUDIO
    TITLE "Classic rock: METAL MAN"
    PERFORMER "LIMELIGHT : Limelight"
    INDEX 01 52:10:47


SEO [PR] おまとめローン 冷え性対策 坂本龍馬 動画掲示板 レンタルサーバー SEO