[ オンエアリストに戻る ]
TITLE "Heavy Metal Syndicate #733"
FILE "2005-02-27.mp3" WAVE
  TRACK 01 AUDIO
    TITLE "MISSISSIPPI QUEEN"
    PERFORMER "OZZY OSBOURNE : Prince of Darkness (Disc 4) (feat. Leslie West)"
    INDEX 01 00:00:00

  TRACK 02 AUDIO
    TITLE "LAYLA"
    PERFORMER "SCHENKER-PATTISON SUMMIT : The Endless Jam Continues"
    INDEX 01 08:46:42

  TRACK 03 AUDIO
    TITLE "SPACE SHIP ONE"
    PERFORMER "PAUL GILBERT : Space Ship One"
    INDEX 01 16:19:31

  TRACK 04 AUDIO
    TITLE "THE NUMBER OF THE BEAST (Live 2002)"
    PERFORMER "IRON MAIDEN : The Number of the Beast (2005 single)"
    INDEX 01 22:06:19

  TRACK 05 AUDIO
    TITLE "KEEPER OF THE FLAME"
    PERFORMER "LANA LANE : Lady Macbeth"
    INDEX 01 27:57:07

  TRACK 06 AUDIO
    TITLE "Message from Lana Lane"
    PERFORMER "LANA LANE"
    INDEX 01 32:45:50

  TRACK 07 AUDIO
    TITLE "KEEP OUR FIRE BURNING"
    PERFORMER "HANOI ROCKS : Back in Yer Face (single)"
    INDEX 01 36:05:39

  TRACK 08 AUDIO
    TITLE "STRIPPED TO THE BONE"
    PERFORMER "DEFLESHED : Reclaim the Beat"
    INDEX 01 39:56:18

  TRACK 09 AUDIO
    TITLE "Classic rock: BLINDED BY THE LIGHT (single edit)"
    PERFORMER "MANFRED MANN'S EARTH BAND : The Roaring Silence"
    INDEX 01 52:14:01


SEO [PR] おまとめローン 冷え性対策 坂本龍馬 動画掲示板 レンタルサーバー SEO