[ オンエアリストに戻る ]
TITLE "Heavy Metal Syndicate #732"
FILE "2005-02-20.mp3" WAVE
  TRACK 01 AUDIO
    TITLE "THE DREAM THAT NEVER ENDS"
    PERFORMER "LANA LANE : Lady Macbeth"
    INDEX 01 00:00:00

  TRACK 02 AUDIO
    TITLE "SAY WHAT YOU WILL"
    PERFORMER "BLACK LABEL SOCIETY : Mafia"
    INDEX 01 13:42:70

  TRACK 03 AUDIO
    TITLE "WASH MY CAR"
    PERFORMER "PAUL GILBERT : Space Ship One"
    INDEX 01 19:00:43

  TRACK 04 AUDIO
    TITLE "WHERE DO WE GO FROM HERE?"
    PERFORMER "HEARTLAND : Move on"
    INDEX 01 24:54:28

  TRACK 05 AUDIO
    TITLE "ANGEL"
    PERFORMER "JUDAS PRIEST : Angel of Retribution"
    INDEX 01 30:13:21

  TRACK 06 AUDIO
    TITLE "ZERO TOLERANCE"
    PERFORMER "MANTAS : Zero Tolerance"
    INDEX 01 37:10:69

  TRACK 07 AUDIO
    TITLE "Classic rock: BOHEMIAN RHAPSODY"
    PERFORMER "BAD NEWS : Bad News"
    INDEX 01 51:54:43


SEO [PR] おまとめローン 冷え性対策 坂本龍馬 動画掲示板 レンタルサーバー SEO