[ オンエアリストに戻る ]
TITLE "Heavy Metal Syndicate #731"
FILE "2005-02-13.mp3" WAVE
  TRACK 01 AUDIO
    TITLE "BOKU NO ATAMA"
    PERFORMER "PAUL GILBERT : Space Ship One"
    INDEX 01 00:00:00

  TRACK 02 AUDIO
    TITLE "BACK IN YER FACE"
    PERFORMER "HANOI ROCKS : Another Hostile Takeover"
    INDEX 01 10:01:28

  TRACK 03 AUDIO
    TITLE "WHAT CAN I DO"
    PERFORMER "JOE LYNN TURNER : The Usual Suspects"
    INDEX 01 14:35:54

  TRACK 04 AUDIO
    TITLE "DIE FOR YOU"
    PERFORMER "STARBREAKER : Starbreaker"
    INDEX 01 20:29:60

  TRACK 05 AUDIO
    TITLE "DEMONIZER"
    PERFORMER "JUDAS PRIEST : Angel of Retribution"
    INDEX 01 26:03:38

  TRACK 06 AUDIO
    TITLE "DOOR 2.12"
    PERFORMER "MNEMIC : The Audio Injected Soul"
    INDEX 01 33:00:33

  TRACK 07 AUDIO
    TITLE "BAD TIMING"
    PERFORMER "NO WARNING : Suffer, Survive"
    INDEX 01 37:11:09

  TRACK 08 AUDIO
    TITLE "Classic rock: KENTUCKY WOMAN (Alternate take)"
    PERFORMER "DEEP PURPLE : The Early Years"
    INDEX 01 50:40:42


SEO [PR] おまとめローン 冷え性対策 坂本龍馬 動画掲示板 レンタルサーバー SEO