[ オンエアリストに戻る ]
TITLE "Heavy Metal Syndicate #730"
FILE "2005-02-06.mp3" WAVE
  TRACK 01 AUDIO
    TITLE "JUDAS RISING"
    PERFORMER "JUDAS PRIEST : Angel of Retribution"
    INDEX 01 00:00:00

  TRACK 02 AUDIO
    TITLE "WORTH FIGHTING FOR"
    PERFORMER "JUDAS PRIEST : Angel of Retribution"
    INDEX 01 04:09:70

  TRACK 03 AUDIO
    TITLE "DEAL WITH THE DEVIL"
    PERFORMER "JUDAS PRIEST : Angel of Retribution"
    INDEX 01 08:28:00

  TRACK 04 AUDIO
    TITLE "SVT"
    PERFORMER "PAUL GILBERT : Space Ship One"
    INDEX 01 21:21:69

  TRACK 05 AUDIO
    TITLE "REMEMBER ME?"
    PERFORMER "HEARTLAND : Move on"
    INDEX 01 26:58:13

  TRACK 06 AUDIO
    TITLE "I'M DREAMING AGAIN"
    PERFORMER "THUNDER : The Magnificent Seventh"
    INDEX 01 31:32:66

  TRACK 07 AUDIO
    TITLE "WARRIORS OF LIES"
    PERFORMER "MYSTIC PROPHECY : Never-Ending"
    INDEX 01 37:07:11

  TRACK 08 AUDIO
    TITLE "Classic rock: ARE YOU READY"
    PERFORMER "GRAND FUNK RAILROAD : On Time (Digitally remastered)"
    INDEX 01 52:11:27


SEO [PR] おまとめローン 冷え性対策 坂本龍馬 動画掲示板 レンタルサーバー SEO