[ オンエアリストに戻る ]
TITLE "Heavy Metal Syndicate #729"
FILE "2005-01-30.mp3" WAVE
  TRACK 01 AUDIO
    TITLE "STREET FIGHTING MAN"
    PERFORMER "MOTLEY CRUE : Red, White & Crue"
    INDEX 01 00:00:00

  TRACK 02 AUDIO
    TITLE "CITY OF LIGHTS"
    PERFORMER "HEARTLAND : Move on"
    INDEX 01 09:33:03

  TRACK 03 AUDIO
    TITLE "OLD SCHOOL"
    PERFORMER "OVERKILL : Relix IV"
    INDEX 01 15:27:46

  TRACK 04 AUDIO
    TITLE "MISS LITTLE INSANE"
    PERFORMER "GLENN HUGHES : Soul Mover"
    INDEX 01 21:42:47

  TRACK 05 AUDIO
    TITLE "FADE INTO THE SUN"
    PERFORMER "THUNDER : The Magnificent Seventh"
    INDEX 01 26:01:15

  TRACK 06 AUDIO
    TITLE "SYMPHONY OF DESTRUCTION (Live)"
    PERFORMER "NIGHTWISH : Kuolema Tekee Taiteilijan"
    INDEX 01 32:39:03

  TRACK 07 AUDIO
    TITLE "SANE VS. NORMAL"
    PERFORMER "MNEMIC : The Audio Injected Soul"
    INDEX 01 37:49:19

  TRACK 08 AUDIO
    TITLE "BOUREE"
    PERFORMER "JETHRO TULL : The Jethro Tull Christmas Album (released 2003)"
    INDEX 01 51:46:49


SEO [PR] おまとめローン 冷え性対策 坂本龍馬 動画掲示板 レンタルサーバー SEO