[ オンエアリストに戻る ]
TITLE "Heavy Metal Syndicate #728"
FILE "2005-01-23.mp3" WAVE
  TRACK 01 AUDIO
    TITLE "REVOLUTION"
    PERFORMER "YNGWIE MALMSTEEN'S RISING FORCE : Unleash the Fury"
    INDEX 01 00:00:00

  TRACK 02 AUDIO
    TITLE "YOU CAN'T KEEP A GOOD MAN DOWN"
    PERFORMER "THUNDER : The Magnificent Seventh"
    INDEX 01 10:12:12

  TRACK 03 AUDIO
    TITLE "REALLY LOVED"
    PERFORMER "JOE LYNN TURNER : The Usual Suspects"
    INDEX 01 14:32:37

  TRACK 04 AUDIO
    TITLE "IN HELL"
    PERFORMER "MYSTIC PROPHECY : Never-Ending"
    INDEX 01 19:37:53

  TRACK 05 AUDIO
    TITLE "BLOOD BOUND"
    PERFORMER "HAMMERFALL : Chapter V: Unbent, Unbowed, Unbroken"
    INDEX 01 23:48:10

  TRACK 06 AUDIO
    TITLE "A POUND OF FLESH"
    PERFORMER "OVERKILL : Relix IV"
    INDEX 01 29:39:23

  TRACK 07 AUDIO
    TITLE "Classic rock: YOU FOOL NO ONE (2004 remix)"
    PERFORMER "DEEP PURPLE : Burn (30th anniversary edition)"
    INDEX 01 51:12:68


SEO [PR] おまとめローン 冷え性対策 坂本龍馬 動画掲示板 レンタルサーバー SEO