[ オンエアリストに戻る ]
TITLE "Heavy Metal Syndicate #727"
FILE "2005-01-16.mp3" WAVE
  TRACK 01 AUDIO
    TITLE "REVOLUTION"
    PERFORMER "JUDAS PRIEST : Angel of Retribution"
    INDEX 01 00:00:00

  TRACK 02 AUDIO
    TITLE "I'M A LIAR (THAT'S THE TRUTH)"
    PERFORMER "MOTLEY CRUE : Red, White & Crue"
    INDEX 01 12:04:07

  TRACK 03 AUDIO
    TITLE "POWER OF LOVE"
    PERFORMER "JOE LYNN TURNER : The Usual Suspects"
    INDEX 01 17:20:55

  TRACK 04 AUDIO
    TITLE "THE CRESTFALLEN"
    PERFORMER "SOILWORK : Stabbing the Drama"
    INDEX 01 23:31:02

  TRACK 05 AUDIO
    TITLE "UNDER A TOTAL BLACKENED SKY"
    PERFORMER "KREATOR : Enemy of God"
    INDEX 01 27:56:22

  TRACK 06 AUDIO
    TITLE "LIONHEART"
    PERFORMER "ASTRAL DOORS : Evil Is Forever"
    INDEX 01 33:37:17

  TRACK 07 AUDIO
    TITLE "Classic rock: CUM ON FEEL THE NOIZE"
    PERFORMER "SLADE : Sladest (Digitally remastered)"
    INDEX 01 50:49:03


SEO [PR] おまとめローン 冷え性対策 坂本龍馬 動画掲示板 レンタルサーバー SEO