[ オンエアリストに戻る ]
TITLE "Heavy Metal Syndicate #726"
FILE "2005-01-09.mp3" WAVE
  TRACK 01 AUDIO
    TITLE "THROWING YOUR LIFE AWAY"
    PERFORMER "SPIRITUAL BEGGARS : Demons"
    INDEX 01 00:00:00

  TRACK 02 AUDIO
    TITLE "JACKNIFE"
    PERFORMER "JOE LYNN TURNER : The Usual Suspects"
    INDEX 01 14:00:45

  TRACK 03 AUDIO
    TITLE "MARIONETTES"
    PERFORMER "STATETROOPER : The Calling"
    INDEX 01 20:37:08

  TRACK 04 AUDIO
    TITLE "CHILDHOOD MEMORIES"
    PERFORMER "NEGATIVE : Sweet & Deceitful (Tour edition)"
    INDEX 01 26:21:23

  TRACK 05 AUDIO
    TITLE "AIN'T SELLING OUT"
    PERFORMER "KENNY WAYNE SHEPHERD : The Place You're In"
    INDEX 01 32:43:38

  TRACK 06 AUDIO
    TITLE "BURNING BRIDGES"
    PERFORMER "MYSTIC PROPHECY : Never-Ending"
    INDEX 01 37:19:24

  TRACK 07 AUDIO
    TITLE "Classic rock: METAL GURU"
    PERFORMER "T. REX : The Slider (Digitally remastered)"
    INDEX 01 51:45:03


SEO [PR] おまとめローン 冷え性対策 坂本龍馬 動画掲示板 レンタルサーバー SEO