[ オンエアリストに戻る ]
TITLE "Heavy Metal Syndicate #725"
FILE "2005-01-02.mp3" WAVE
  TRACK 01 AUDIO
    TITLE "Introduction: 春の海"
    PERFORMER "箏:宮城道雄 尺八:吉田晴風 : 春の海 (single)"
    INDEX 01 00:00:00

  TRACK 02 AUDIO
    TITLE "FUGUETTA"
    PERFORMER "YNGWIE MALMSTEEN'S RISING FORCE : Unleash the Fury"
    INDEX 01 06:06:07

  TRACK 03 AUDIO
    TITLE "CROWN OF THORNS"
    PERFORMER "YNGWIE MALMSTEEN'S RISING FORCE : Unleash the Fury"
    INDEX 01 07:07:70

  TRACK 04 AUDIO
    TITLE "BRIDE OF CHRIST"
    PERFORMER "ASTRAL DOORS : Evil Is Forever"
    INDEX 01 15:35:42

  TRACK 05 AUDIO
    TITLE "INTO THE ARENA"
    PERFORMER "MASTERPLAN : Aeronautics"
    INDEX 01 20:15:08

  TRACK 06 AUDIO
    TITLE "STALEMATE"
    PERFORMER "SOILWORK : Stabbing the Drama"
    INDEX 01 27:18:49

  TRACK 07 AUDIO
    TITLE "EMANUEL"
    PERFORMER "BLACKMORE'S NIGHT : Beyond the Sunset - The Romantic Collection (Bonus CD - Christmas Songs)"
    INDEX 01 32:24:36

  TRACK 08 AUDIO
    TITLE "Classic rock: HEAT OF THE MOMENT"
    PERFORMER "ASIA : Asia"
    INDEX 01 52:18:10


SEO [PR] おまとめローン 冷え性対策 坂本龍馬 動画掲示板 レンタルサーバー SEO