[ オンエアリストに戻る ]
TITLE "Heavy Metal Syndicate #723"
FILE "2004-12-19.mp3" WAVE
  TRACK 01 AUDIO
    TITLE "LOVE IN AN ELEVATOR (Live 2004)"
    PERFORMER "AEROSMITH : You Gotta Move (Bonus CD)"
    INDEX 01 00:00:00

  TRACK 02 AUDIO
    TITLE "MY MY / HEY HEY (OUT OF THE BLUE)"
    PERFORMER "NEGATIVE : Sweet & Deceitful (Tour edition)"
    INDEX 01 13:22:49

  TRACK 03 AUDIO
    TITLE "WEAPON OF VANITY"
    PERFORMER "SOILWORK : Stabbing the Drama"
    INDEX 01 17:44:25

  TRACK 04 AUDIO
    TITLE "INVISIBLE TOUCH"
    PERFORMER "J.R. BLACKMORE : Recall the Past (EP)"
    INDEX 01 25:14:73

  TRACK 05 AUDIO
    TITLE "CHRISTMAS EVE"
    PERFORMER "BLACKMORE'S NIGHT : Beyond the Sunset - The Romantic Collection (Bonus CD - Christmas Songs)"
    INDEX 01 28:48:42

  TRACK 06 AUDIO
    TITLE "ONE THOUGHT"
    PERFORMER "DARK TRANQUILLITY : Character"
    INDEX 01 34:46:02

  TRACK 07 AUDIO
    TITLE "Classic rock: JEFF'S BOOGIE (Live 1973)"
    PERFORMER "BECK, BOGERT & APPICE : Beck, Bogert & Appice Live (ライヴ・イン・ジャパン) (Digitally remastered)"
    INDEX 01 51:52:27


SEO [PR] おまとめローン 冷え性対策 坂本龍馬 動画掲示板 レンタルサーバー SEO