[ オンエアリストに戻る ]
TITLE "Heavy Metal Syndicate #722"
FILE "2004-12-12.mp3" WAVE
  TRACK 01 AUDIO
    TITLE "TAKING IT BACK"
    PERFORMER "BON JOVI : 100,000,000 Bon Jovi Fans Can't Be Wrong..."
    INDEX 01 00:00:00

  TRACK 02 AUDIO
    TITLE "I'M NOT THE SAME MAN"
    PERFORMER "IOMMI with GLENN HUGHES : The 1996 Dep Sessions"
    INDEX 01 09:30:21

  TRACK 03 AUDIO
    TITLE "D.O.A."
    PERFORMER "STATETROOPER : The Calling"
    INDEX 01 15:38:01

  TRACK 04 AUDIO
    TITLE "SCARS IN BLACK"
    PERFORMER "PAINMUSEUM : Metal for Life"
    INDEX 01 21:28:27

  TRACK 05 AUDIO
    TITLE "SOUL SEARCHING"
    PERFORMER "SHY : Sunset & Vine"
    INDEX 01 27:06:59

  TRACK 06 AUDIO
    TITLE "ENEMY OF GOD"
    PERFORMER "KREATOR : Enemy of God"
    INDEX 01 34:35:31

  TRACK 07 AUDIO
    TITLE "Classic rock: EMPTY ROOMS"
    PERFORMER "GARY MOORE : Victims of the Future (Digitally remastered)"
    INDEX 01 49:41:38


SEO [PR] おまとめローン 冷え性対策 坂本龍馬 動画掲示板 レンタルサーバー SEO