[ オンエアリストに戻る ]
TITLE "Heavy Metal Syndicate #720"
FILE "2004-11-28.mp3" WAVE
  TRACK 01 AUDIO
    TITLE "TOYS IN THE ATTIC (Live 2004)"
    PERFORMER "AEROSMITH : You Gotta Move (Bonus CD)"
    INDEX 01 00:00:00

  TRACK 02 AUDIO
    TITLE "I LOVE YOU MORE THAN ROCK 'N' ROLL"
    PERFORMER "THUNDER : I Love You More Than Rock 'n' Roll (single)"
    INDEX 01 12:36:24

  TRACK 03 AUDIO
    TITLE "BEER BEER / 吐くまで飲もうぜ"
    PERFORMER "KORPIKLAANI : Voice of Wilderness / 荒野のコルピクラーニ"
    INDEX 01 22:28:02

  TRACK 04 AUDIO
    TITLE "CRIMSON RIDER"
    PERFORMER "MASTERPLAN : Aeronautics"
    INDEX 01 27:44:60

  TRACK 05 AUDIO
    TITLE "SUICIDE TERRORIST"
    PERFORMER "KREATOR : Enemy of God"
    INDEX 01 33:30:18

  TRACK 06 AUDIO
    TITLE "OUT OF NOTHING"
    PERFORMER "DARK TRANQUILLITY : Character"
    INDEX 01 38:09:68

  TRACK 07 AUDIO
    TITLE "Classic rock: THE GREEN MANALISHI (WITH THE TWO PRONG CROWN)"
    PERFORMER "FLEETWOOD MAC : The Green Manalishi (With the Two Prong Crown) (single) / Greatest Hits (1971 album)"
    INDEX 01 51:48:71


SEO [PR] おまとめローン 冷え性対策 坂本龍馬 動画掲示板 レンタルサーバー SEO