[ オンエアリストに戻る ]
TITLE "Heavy Metal Syndicate #719"
FILE "2004-11-21.mp3" WAVE
  TRACK 01 AUDIO
    TITLE "ENTER SANDMAN"
    PERFORMER "NUNO BETTENCOURT, SCOTT TRAVIS, TOMMY VICTOR and JOEY VERA"
    Metallic Attack - The Ultimate Tribute (Compilation)
    INDEX 01 00:00:00

  TRACK 02 AUDIO
    TITLE "SUCKERPUNCH (Live 2004)"
    PERFORMER "WILDHEARTS : The Wildhearts Strike Back"
    INDEX 01 15:17:01

  TRACK 03 AUDIO
    TITLE "RATS IN THE CELLAR (Live 2004)"
    PERFORMER "AEROSMITH : You Gotta Move (Bonus CD)"
    INDEX 01 18:12:46

  TRACK 04 AUDIO
    TITLE "LIVE MY LIFE FOR YOU"
    PERFORMER "DIVINEFIRE : Glory Thy Name"
    INDEX 01 29:03:01

  TRACK 05 AUDIO
    TITLE "(ALWAYS BE) YOU AND I"
    PERFORMER "LAST AUTUMN'S DREAM : II"
    INDEX 01 33:44:36

  TRACK 06 AUDIO
    TITLE "LINE IN THE SAND"
    PERFORMER "MOTORHEAD : WWE ThemeAddict - The Music V6"
    INDEX 01 41:24:51

  TRACK 07 AUDIO
    TITLE "Classic rock: A LITTLE MORE LOVE"
    PERFORMER "ZENO : Zeno"
    INDEX 01 51:29:33


SEO [PR] おまとめローン 冷え性対策 坂本龍馬 動画掲示板 レンタルサーバー SEO