[ オンエアリストに戻る ]
TITLE "Heavy Metal Syndicate #718"
FILE "2004-11-14.mp3" WAVE
  TRACK 01 AUDIO
    TITLE "BAD BOYS (Live 2004)"
    PERFORMER "JOHN SYKES : Bad Boy Live!"
    INDEX 01 00:00:00

  TRACK 02 AUDIO
    TITLE "RUNNING"
    PERFORMER "LAST AUTUMN'S DREAM : II"
    INDEX 01 10:26:56

  TRACK 03 AUDIO
    TITLE "LONELY AT THE TOP"
    PERFORMER "BON JOVI : 100,000,000 Bon Jovi Fans Can't Be Wrong..."
    INDEX 01 16:17:01

  TRACK 04 AUDIO
    TITLE "SLIPPING AWAY"
    PERFORMER "JON OLIVA'S PAIN : 'Tage Mahal"
    INDEX 01 22:18:33

  TRACK 05 AUDIO
    TITLE "HEART ATTACK"
    PERFORMER "SILENT FORCE : Worlds Apart"
    INDEX 01 26:20:15

  TRACK 06 AUDIO
    TITLE "THRONE OF RATS"
    PERFORMER "MARDUK : Plague Angel"
    INDEX 01 32:45:08

  TRACK 07 AUDIO
    TITLE "THE GOLD MEDAL"
    PERFORMER "DONNAS : Gold Medal"
    INDEX 01 36:35:14

  TRACK 08 AUDIO
    TITLE "TO KILL THE CHILD"
    PERFORMER "ROGER WATERS : To Kill the Child & Leaving Beirut (single)"
    INDEX 01 50:16:32


SEO [PR] おまとめローン 冷え性対策 坂本龍馬 動画掲示板 レンタルサーバー SEO