[ オンエアリストに戻る ]
TITLE "Heavy Metal Syndicate #717"
FILE "2004-11-07.mp3" WAVE
  TRACK 01 AUDIO
    TITLE "EDGE OF A BROKEN HEART"
    PERFORMER "BON JOVI : 100,000,000 Bon Jovi Fans Can't Be Wrong..."
    INDEX 01 00:00:00

  TRACK 02 AUDIO
    TITLE "COLD SWEAT (Live 2004)"
    PERFORMER "JOHN SYKES : Bad Boy Live!"
    INDEX 01 09:43:23

  TRACK 03 AUDIO
    TITLE "THE FORGOTTEN MEMORY"
    PERFORMER "FIREWIND : Forged by Fire"
    INDEX 01 14:38:02

  TRACK 04 AUDIO
    TITLE "THIRD EYE GLOWIN"
    PERFORMER "ASPHALT BLASTER : Year of the Blaster"
    INDEX 01 20:53:07

  TRACK 05 AUDIO
    TITLE "BACKDOOR QUEEN"
    PERFORMER "M.ILL.ION : Kingsize"
    INDEX 01 24:59:61

  TRACK 06 AUDIO
    TITLE "INDIANS"
    PERFORMER "ANTHRAX : The Greater of Two Evils"
    INDEX 01 32:13:50

  TRACK 07 AUDIO
    TITLE "I'M A KING BEE (Live 2003)"
    PERFORMER "STEVEN TYLER AND JOE PERRY OF AEROSMITH : Lightning in a Bottle - A One Night History of the Blues"
    INDEX 01 51:56:21


SEO [PR] おまとめローン 冷え性対策 坂本龍馬 動画掲示板 レンタルサーバー SEO