[ オンエアリストに戻る ]
TITLE "Heavy Metal Syndicate #716"
FILE "2004-10-31.mp3" WAVE
  TRACK 01 AUDIO
    TITLE "ROCKIN' ON TOP OF THE WORLD"
    PERFORMER "STEVEN TYLER : The Polar Express (Soundtrack)"
    INDEX 01 00:00:00

  TRACK 02 AUDIO
    TITLE "THE RADIO SAVED MY LIFE TONIGHT"
    PERFORMER "BON JOVI : 100,000,000 Bon Jovi Fans Can't Be Wrong..."
    INDEX 01 10:46:31

  TRACK 03 AUDIO
    TITLE "MASQUERADE"
    PERFORMER "FEINSTEIN : Third Wish"
    INDEX 01 17:26:42

  TRACK 04 AUDIO
    TITLE "THE ENCOUNTER"
    PERFORMER "THALION : Another Sun (feat. Michael Kiske)"
    INDEX 01 23:24:10

  TRACK 05 AUDIO
    TITLE "RIDE THE STORM"
    PERFORMER "SILENT FORCE : Worlds Apart"
    INDEX 01 28:02:61

  TRACK 06 AUDIO
    TITLE "CAN'T FIND MY BABY"
    PERFORMER "GARY MOORE : Power of the Blues"
    INDEX 01 33:42:10

  TRACK 07 AUDIO
    TITLE "UP IN PARADISE"
    PERFORMER "LAST AUTUMN'S DREAM : II"
    INDEX 01 37:56:59

  TRACK 08 AUDIO
    TITLE "WE'RE NOT GONNA TAKE IT"
    PERFORMER "TWISTED SISTER : Still Hungry"
    INDEX 01 51:33:25


SEO [PR] おまとめローン 冷え性対策 坂本龍馬 動画掲示板 レンタルサーバー SEO