[ オンエアリストに戻る ]
TITLE "Heavy Metal Syndicate #715"
FILE "2004-10-24.mp3" WAVE
  TRACK 01 AUDIO
    TITLE "ONE MORE FOR THE ROAD"
    PERFORMER "DIO : Master of the Moon"
    INDEX 01 00:00:00

  TRACK 02 AUDIO
    TITLE "REGENERATION"
    PERFORMER "FEINSTEIN : Third Wish"
    INDEX 01 09:03:62

  TRACK 03 AUDIO
    TITLE "MADHOUSE"
    PERFORMER "ANTHRAX : The Greater of Two Evils"
    INDEX 01 15:33:15

  TRACK 04 AUDIO
    TITLE "NOVEMBER CALLS"
    PERFORMER "JON LORD : Beyond the Notes (feat. Sam Brown)"
    INDEX 01 22:48:38

  TRACK 05 AUDIO
    TITLE "I KNOW JACK"
    PERFORMER "MEGADETH : The System Has Failed"
    INDEX 01 36:17:40

  TRACK 06 AUDIO
    TITLE "Message from Dave Mustaine"
    PERFORMER "MEGADETH"
    INDEX 01 36:56:12

  TRACK 07 AUDIO
    TITLE "FREE BIRD (Live 2004)"
    PERFORMER "LYNYRD SKYNYRD : Lynyrd Skynyrd Lyve - The Vicious Cycle Tour"
    INDEX 01 44:03:40


SEO [PR] おまとめローン 冷え性対策 坂本龍馬 動画掲示板 レンタルサーバー SEO