[ オンエアリストに戻る ]
TITLE "Heavy Metal Syndicate #714"
FILE "2004-10-17.mp3" WAVE
  TRACK 01 AUDIO
    TITLE "GOD'S GOSPEL"
    PERFORMER "GEYERS : Lasterzungen (feat. Ritchie Blackmore)"
    INDEX 01 00:00:00

  TRACK 02 AUDIO
    TITLE "WATERLOO SUNSET"
    PERFORMER "DEF LEPPARD : Best of"
    INDEX 01 14:31:13

  TRACK 03 AUDIO
    TITLE "MY KINGDOM"
    PERFORMER "MEGADETH : The System Has Failed"
    INDEX 01 19:24:50

  TRACK 04 AUDIO
    TITLE "Message from Dave Mustaine"
    PERFORMER "MEGADETH"
    INDEX 01 22:27:15

  TRACK 05 AUDIO
    TITLE "THE POWER WITHIN"
    PERFORMER "DUNGEON : One Step Beyond"
    INDEX 01 25:21:08

  TRACK 06 AUDIO
    TITLE "EYES OF A KING"
    PERFORMER "M.ILL.ION : Kingsize"
    INDEX 01 31:04:05

  TRACK 07 AUDIO
    TITLE "FALL BEHIND ME"
    PERFORMER "DONNAS : Gold Medal"
    INDEX 01 38:30:22

  TRACK 08 AUDIO
    TITLE "Classic rock: MIRACLE OF LOVE"
    PERFORMER "EDGAR WINTER GROUP : Shock Treatment"
    INDEX 01 52:34:02


SEO [PR] おまとめローン 冷え性対策 坂本龍馬 動画掲示板 レンタルサーバー SEO